Menu

【自炊】OPUD-231 初スカトロ解禁!!コスプレイヤー 監禁スカトロ凌辱 木村つな




3

 

 

【作品】 【ネタキャラ】
魔法少女まどかマギカ 鹿目まどか
あの日見た花の名前を僕達はまだ知らない。 本間芽衣子

 

【品番】 OPUD-231
【発売日】 2016-08-25
【収録時間】 150 分
【監督】 三島六三郎
【メーカー】 オペラ
【レーベル】 OPERA
【ジャンル】 コスプレイヤー , 監禁スカトロ凌辱 , コスプレ , 単体作品 , 独占配信 , スカトロ , 縛り緊縛 , 脱糞 , 浣腸 , ハイビジョン
【出演者】 木村つな
【内容】 動画

 

【ダウンロード(Download)】
【解像度】 1080P
【BT】 Pantsu|nyaa|magnet
【Openload】 part1|part2|part3|part4|part5|part6
【パスワード(Password)】 CosFans.pw

 

【メディア情報】

General
Complete name : [cosfans.pw]OPUD-231 初スカトロ解禁!!コスプレイヤー 監禁スカト2ロ凌辱 木村つな[1080P].mp4
Format : MPEG-4
Format profile : Base Media
Codec ID : isom (isom/iso2/avc1/mp41)
File size : 5.43 GiB
Duration : 2 h 32 min
Overall bit rate : 5 118 kb/s
Writing application : Lavf57.72.101

Video
ID : 1
Format : AVC
Format/Info : Advanced Video Codec
Format profile : [email protected]
Format settings, CABAC : Yes
Format settings, ReFrames : 4 frames
Muxing mode : Container [email protected]
Codec ID : avc1
Codec ID/Info : Advanced Video Coding
Duration : 2 h 32 min
Bit rate : 4 957 kb/s
Width : 1 920 pixels
Height : 1 080 pixels
Display aspect ratio : 16:9
Frame rate mode : Variable
Frame rate : 30.000 FPS
Minimum frame rate : 29.412 FPS
Maximum frame rate : 30.303 FPS
Color space : YUV
Chroma subsampling : 4:2:0
Bit depth : 8 bits
Scan type : Progressive
Bits/(Pixel*Frame) : 0.080
Stream size : 5.26 GiB (97%)
Writing library : x264 core 146 r2538 121396c
Encoding settings : cabac=1 / ref=1 / deblock=1:0:0 / analyse=0x3:0x113 / me=hex / subme=2 / psy=1 / psy_rd=1.00:0.00 / mixed_ref=0 / me_range=16 / chroma_me=1 / trellis=0 / 8x8dct=1 / cqm=0 / deadzone=21,11 / fast_pskip=1 / chroma_qp_offset=0 / threads=6 / lookahead_threads=2 / sliced_threads=0 / nr=0 / decimate=1 / interlaced=0 / bluray_compat=0 / constrained_intra=0 / bframes=3 / b_pyramid=2 / b_adapt=1 / b_bias=0 / direct=1 / weightb=1 / open_gop=0 / weightp=1 / keyint=250 / keyint_min=25 / scenecut=40 / intra_refresh=0 / rc_lookahead=10 / rc=crf / mbtree=1 / crf=22.0 / qcomp=0.60 / qpmin=0 / qpmax=69 / qpstep=4 / vbv_maxrate=10000 / vbv_bufsize=3500 / crf_max=0.0 / nal_hrd=none / filler=0 / ip_ratio=1.40 / aq=1:1.00
Color range : Limited
Color primaries : BT.709
Transfer characteristics : sYCC
Matrix coefficients : BT.709

Audio
ID : 2
Format : AAC
Format/Info : Advanced Audio Codec
Format profile : LC
Codec ID : 40
Duration : 2 h 32 min
Bit rate mode : Constant
Bit rate : 149 kb/s
Channel(s) : 2 channels
Channel positions : Front: L R
Sampling rate : 48.0 kHz
Frame rate : 46.875 FPS (1024 spf)
Compression mode : Lossy
Stream size : 162 MiB (3%)
Language : English
Default : Yes
Alternate group : 1

[collapse]

Categories:   OPERA(OPUD), レーベル

Comments