Menu

【自炊】anicosMax Chapter11[720P + 144P]




3

 

 

【作品】 【ネタキャラ】
ご注文はうさぎですか? 香風智乃

 

【品番】 gcd=D0044885
【発売日】 2016/09/28
【収録時間】 66分 + 114P
【監督】 —-
【メーカー】 AnicosMAX
【レーベル】 AnicosMAX
【ジャンル】 ウェイトレス , 陵辱 , 輪姦 , ロリ , アナル , マゾ , 着衣エッチ , 制服
【出演者】 不明
【内容】 動画画像

 

【ダウンロード(Download)】
【解像度】 720P
【BT】 Pantsu|nyaa|magnet
【Openload】 part1|part2
【パスワード(Password)】 CosFans.pw

 

【メディア情報】

General
Complete name : [cosfans.pw]anicosMaxChapter11[720P].mp4
Format : MPEG-4
Format profile : Base Media / Version 2
Codec ID : mp42 (mp42/mp41)
File size : 1.47 GiB
Duration : 1 h 6 min
Overall bit rate : 3 160 kb/s
Encoded date : UTC 2016-09-28 04:44:21
Tagged date : UTC 2016-09-28 04:46:37

Video
ID : 1
Format : MPEG-4 Visual
Format profile : [email protected]
Format settings, BVOP : Yes
Format settings, QPel : No
Format settings, GMC : No warppoints
Format settings, Matrix : Default (H.263)
Codec ID : 20
Duration : 1 h 6 min
Bit rate : 3 016 kb/s
Width : 1 280 pixels
Height : 720 pixels
Display aspect ratio : 16:9
Frame rate mode : Constant
Frame rate : 29.970 (29970/1000) FPS
Color space : YUV
Bit depth : 8 bits
Scan type : Progressive
Compression mode : Lossy
Bits/(Pixel*Frame) : 0.109
Stream size : 1.40 GiB (95%)
Title : Apple ビデオ・メディアハンドラ
Language : English
Encoded date : UTC 2016-09-28 04:43:03
Tagged date : UTC 2016-09-28 04:46:37
Color primaries : BT.709
Transfer characteristics : BT.709
Matrix coefficients : BT.709
transfer_characteristics_Origi : BT.601
matrix_coefficients_Original : BT.601

Audio
ID : 2
Format : AAC
Format/Info : Advanced Audio Codec
Format profile : LC
Codec ID : 40
Duration : 1 h 6 min
Source duration : 1 h 6 min
Bit rate mode : Constant
Bit rate : 59.9 kb/s
Nominal bit rate : 64.0 kb/s
Channel(s) : 2 channels
Channel positions : Front: L R
Sampling rate : 44.1 kHz
Frame rate : 43.066 FPS (1024 spf)
Compression mode : Lossy
Stream size : 28.5 MiB (2%)
Source stream size : 28.5 MiB (2%)
Title : Apple サウンド・メディアハンドラ
Language : English
Encoded date : UTC 2016-09-28 04:43:03
Tagged date : UTC 2016-09-28 04:46:37

Other #1
ID : 3
Type : Scene description
Format : System Core
Codec ID : 2
Duration : 1 h 6 min
Title : Apple MPEG-4 シーン・メディアハンドラ
Language : English
Encoded date : UTC 2016-09-28 04:43:03
Tagged date : UTC 2016-09-28 04:46:37

Other #2
ID : 4
Type : Object description
Format : System
Codec ID : 1
Duration : 1 h 6 min
Title : Apple MPEG-4 ODSM メディアハンドラ
Language : English
Encoded date : UTC 2016-09-28 04:43:03
Tagged date : UTC 2016-09-28 04:46:37

Other #3
ID : 5
Type : Hint
Format : RTP
Codec ID : rtp
Duration : 1 h 6 min
Title : ヒントメディアハンドラ
Language : English
Default : No
Encoded date : UTC 2016-09-28 04:43:03
Tagged date : UTC 2016-09-28 04:46:37
Source duration : 3997246
Source frame count : 43037
Source stream size : 4131536
Stream size : 4131536
Bit rate mode : VBR

Other #4
ID : 6
Type : Hint
Format : RTP
Codec ID : rtp
Duration : 1 h 6 min
Title : ヒントメディアハンドラ
Language : English
Default : No
Encoded date : UTC 2016-09-28 04:43:31
Tagged date : UTC 2016-09-28 04:46:37

[collapse]

Categories:   他のレーベル, 同人

Comments

  • Posted: 6月 17, 2017 07:23

    xxx

    PW is?
    • Posted: 6月 17, 2017 12:33

      Admin

      Password is CosFans.pw

      あちゃー、これを忘れた、本当にすみません

  • Posted: 6月 18, 2017 08:38

    xxx

    thx , i appreciate that