Menu

【自炊】へびいちご動画@03「パイパンAカップしずくちゃんのワレメいじり ご○うさ香○智○レオタード編」[720P]




3

 

 

【作品】 【ネタキャラ】
ご注文はうさぎですか? 香風智乃

 

【品番】 d_cos0051
【発売日】 2016/06/25 10:00
【収録時間】 —-
【監督】 —-
【サークル】  へびいちご動画
【ジャンル】 スレンダー , パイパン , 貧乳微乳 , ロリ , コスプレ動画
【出演者】 不明
【内容】 動画

 

【ダウンロード(Download)】
【解像度】 720P
【BT】 Pantsu|nyaa|magnet
【Openload】 part1|part2|part3
【パスワード(Password)】 CosFans.pw

 

【メディア情報】

General
Complete name : [cosfans.pw]へびいちご動画@03「パイパンAカップしずくちゃんのワレメいじり ご○うさ香○智○レオタード編」[720P].mp4
Format : MPEG-4
Format profile : Base Media
Codec ID : isom (isom/avc1)
File size : 2.50 GiB
Duration : 59 min 30 s
Overall bit rate mode : Variable
Overall bit rate : 6 004 kb/s
Encoded date : UTC 2016-06-17 01:09:59
Tagged date : UTC 2016-06-17 01:09:59

Video
ID : 1
Format : AVC
Format/Info : Advanced Video Codec
Format profile : [email protected]
Format settings, CABAC : Yes
Format settings, ReFrames : 3 frames
Codec ID : avc1
Codec ID/Info : Advanced Video Coding
Duration : 59 min 30 s
Bit rate mode : Variable
Bit rate : 5 744 kb/s
Width : 1 280 pixels
Height : 720 pixels
Display aspect ratio : 16:9
Frame rate mode : Constant
Frame rate : 29.970 (30000/1001) FPS
Color space : YUV
Chroma subsampling : 4:2:0
Bit depth : 8 bits
Scan type : Progressive
Bits/(Pixel*Frame) : 0.208
Stream size : 2.39 GiB (96%)
Title : Imported with GPAC 0.4.6-DEV-git-5ca3a9a
Writing library : x264 core 148 r2665 a01e339
Encoding settings : cabac=1 / ref=3 / deblock=1:1:1 / analyse=0x1:0x111 / me=hex / subme=6 / psy=1 / psy_rd=0.50:0.00 / mixed_ref=0 / me_range=16 / chroma_me=1 / trellis=0 / 8x8dct=0 / cqm=0 / deadzone=21,11 / fast_pskip=0 / chroma_qp_offset=-2 / threads=12 / lookahead_threads=2 / sliced_threads=0 / nr=0 / decimate=0 / interlaced=0 / bluray_compat=0 / constrained_intra=0 / bframes=2 / b_pyramid=0 / b_adapt=1 / b_bias=0 / direct=3 / weightb=1 / open_gop=0 / weightp=1 / keyint=250 / keyint_min=25 / scenecut=0 / intra_refresh=0 / rc_lookahead=10 / rc=cbr / mbtree=1 / bitrate=5744 / ratetol=1.0 / qcomp=0.60 / qpmin=5 / qpmax=69 / qpstep=4 / vbv_maxrate=5744 / vbv_bufsize=12000 / nal_hrd=vbr / filler=0 / ip_ratio=1.40 / aq=1:1.00
Encoded date : UTC 2016-06-17 01:09:59
Tagged date : UTC 2016-06-17 01:10:22

Audio
ID : 2
Format : AAC
Format/Info : Advanced Audio Codec
Format profile : LC
Codec ID : 40
Duration : 59 min 30 s
Bit rate mode : Variable
Bit rate : 256 kb/s
Maximum bit rate : 262 kb/s
Channel(s) : 2 channels
Channel positions : Front: L R
Sampling rate : 48.0 kHz
Frame rate : 46.875 FPS (1024 spf)
Compression mode : Lossy
Stream size : 109 MiB (4%)
Encoded date : UTC 2016-06-17 01:10:21
Tagged date : UTC 2016-06-17 01:10:22

[collapse]

Categories:   他の同人, 同人

Comments