Menu

【自炊】【エロマン◯先生×阿部乃みく】ハメ潮噴射!引きこもり妹と汗だくセックスの巻(ぷにもえの11B)[a1080P + 100P]


3

 

 

【作品】 【ネタキャラ】
エロマンガ先生 和泉紗霧

 

【品番】 D0048597
【発売日】 2017/04/28
【収録時間】 70分 + 100P
【監督】 —-
【サークル】 ぷにもえ!
【ジャンル】 ツンデレ , , パンチラ , フェラ , ロリ , ぷに
【出演者】 阿部乃みく
【内容】 動画 , 画像

 

【ダウンロード(Download)】
【解像度】 a1080P + 100P
【BT】 Pantsu|nyaa|magnet
【Openload】 part1|part2|part3
【パスワード(Password)】 CosFans.pw

 

【メディア情報】

General
Complete name : [cosfans.pw]【エロマン◯先生×阿部乃みく】ハメ潮噴射!引きこもり妹と汗だくセックスの巻(ぷにもえの11B)[a1080P + 100P].mp4
Format : MPEG-4
Format profile : Base Media / Version 2
Codec ID : mp42 (mp42/isom/avc1)
File size : 2.03 GiB
Duration : 1 h 10 min
Overall bit rate mode : Variable
Overall bit rate : 4 130 kb/s
Movie name : PNME-11B
Performer : 艦長
Writing application : TMPGEnc Video Mastering Works 5 Version. 5.5.3.108
Copyright : ぷにもえ!
Comment : http://blog.livedoor.jp/punimoe_cos/

Video
ID : 2
Format : AVC
Format/Info : Advanced Video Codec
Format profile : [email protected]
Format settings, CABAC : Yes
Format settings, ReFrames : 5 frames
Codec ID : avc1
Codec ID/Info : Advanced Video Coding
Duration : 1 h 10 min
Bit rate mode : Variable
Bit rate : 4 000 kb/s
Maximum bit rate : 8 000 kb/s
Width : 1 440 pixels
Height : 1 080 pixels
Display aspect ratio : 16:9
Frame rate mode : Constant
Frame rate : 29.970 (30000/1001) FPS
Standard : Component
Color space : YUV
Chroma subsampling : 4:2:0
Bit depth : 8 bits
Scan type : Progressive
Bits/(Pixel*Frame) : 0.086
Stream size : 1.97 GiB (97%)
Writing library : x264 core 136
Encoding settings : cabac=1 / ref=5 / deblock=1:0:0 / analyse=0x3:0x113 / me=hex / subme=7 / psy=1 / psy_rd=1.00:0.00 / mixed_ref=1 / me_range=16 / chroma_me=1 / trellis=1 / 8x8dct=1 / cqm=2 / deadzone=21,11 / fast_pskip=1 / chroma_qp_offset=-4 / threads=12 / lookahead_threads=2 / sliced_threads=0 / slices=1 / nr=0 / decimate=1 / interlaced=0 / bluray_compat=0 / stitchable=1 / constrained_intra=0 / bframes=3 / b_pyramid=0 / b_adapt=1 / b_bias=0 / direct=1 / weightb=1 / open_gop=0 / weightp=1 / keyint=250 / keyint_min=25 / scenecut=40 / intra_refresh=0 / rc_lookahead=40 / rc=2pass / mbtree=1 / bitrate=4000 / ratetol=1.0 / qcomp=0.60 / qpmin=5 / qpmax=69 / qpstep=4 / cplxblur=20.0 / qblur=0.5 / vbv_maxrate=8000 / vbv_bufsize=8000 / nal_hrd=vbr / ip_ratio=1.40 / aq=1:1.00
Color range : Limited
Color primaries : BT.709
Transfer characteristics : BT.709
Matrix coefficients : BT.709

Audio
ID : 1
Format : AAC
Format/Info : Advanced Audio Codec
Format profile : LC
Codec ID : 40
Duration : 1 h 10 min
Bit rate mode : Variable
Bit rate : 125 kb/s
Maximum bit rate : 576 kb/s
Channel(s) : 2 channels
Channel positions : Front: L R
Sampling rate : 48.0 kHz
Frame rate : 46.875 FPS (1024 spf)
Compression mode : Lossy
Stream size : 63.1 MiB (3%)

[collapse]

Categories:   他の同人, 同人

Comments

  • Posted: 6月 17, 2017 10:06

    Scrooge

    666666
  • Posted: 6月 29, 2017 20:31

    ZackyoooHT

    nice one
  • Posted: 1月 5, 2018 22:37

    lt2333

    2333