Menu

【自炊】トモきゅーと!EX[720P & 4K]





3

 

 

【作品】 【ネタキャラ】
ろうきゅーぶ! 湊智花

 

【品番】 D0041935
【発売日】 2016/04/04
【収録時間】 76 分
【監督】 —-
【サークル】 @factory-EX
【ジャンル】 恥辱 , ロリ , アナル , 着衣エッチ , 制服
【出演者】 荒木まい
【内容】 動画

 

【ダウンロード(Download)】
【解像度】 720P & 4K
【BT】 Pantsu|nyaa|magnet
【Openload】 part1|part2|part3|part4|part5|part6|part7|part8|part9
【パスワード(Password)】 CosFans.pw

 

【メディア情報】

General
Complete name :[cosfans.pw]トモきゅーと!EX 01 [4K].mp4
Format : MPEG-4
Format profile : JVT
Codec ID : avc1 (avc1/mp42)
File size : 2.78 GiB
Duration : 42 min 23 s
Overall bit rate mode : Constant
Overall bit rate : 9 398 kb/s
Encoded date : UTC 2016-04-01 16:53:36
Tagged date : UTC 2016-04-01 16:53:36

Video
ID : 1
Format : AVC
Format/Info : Advanced Video Codec
Format profile : [email protected]
Format settings, CABAC : Yes
Format settings, ReFrames : 2 frames
Codec ID : avc1
Codec ID/Info : Advanced Video Coding
Duration : 42 min 23 s
Bit rate mode : Constant
Bit rate : 9 000 kb/s
Width : 3 840 pixels
Height : 2 160 pixels
Display aspect ratio : 16:9
Frame rate mode : Constant
Frame rate : 29.970 (30000/1001) FPS
Color space : YUV
Chroma subsampling : 4:2:0
Bit depth : 8 bits
Scan type : Progressive
Bits/(Pixel*Frame) : 0.036
Stream size : 2.66 GiB (96%)
Language : English
Encoded date : UTC 2016-04-01 16:53:36
Tagged date : UTC 2016-04-01 16:53:36

Audio
ID : 2
Format : AAC
Format/Info : Advanced Audio Codec
Format profile : LC
Codec ID : 40
Duration : 42 min 23 s
Source duration : 42 min 23 s
Bit rate mode : Constant
Bit rate : 384 kb/s
Channel(s) : 2 channels
Channel positions : Front: L R
Sampling rate : 48.0 kHz
Frame rate : 46.875 FPS (1024 spf)
Compression mode : Lossy
Stream size : 116 MiB (4%)
Source stream size : 116 MiB (4%)
Language : English
Encoded date : UTC 2016-04-01 16:53:36
Tagged date : UTC 2016-04-01 16:53:36

—————————————————————-
General
Complete name : [cosfans.pw]トモきゅーと!EX 02 [4K].mp4
Format : MPEG-4
Format profile : JVT
Codec ID : avc1 (avc1/mp42)
File size : 2.23 GiB
Duration : 33 min 56 s
Overall bit rate mode : Constant
Overall bit rate : 9 397 kb/s
Encoded date : UTC 2016-04-01 11:42:45
Tagged date : UTC 2016-04-01 11:42:45

Video
ID : 1
Format : AVC
Format/Info : Advanced Video Codec
Format profile : [email protected]
Format settings, CABAC : Yes
Format settings, ReFrames : 2 frames
Codec ID : avc1
Codec ID/Info : Advanced Video Coding
Duration : 33 min 56 s
Bit rate mode : Constant
Bit rate : 9 000 kb/s
Width : 3 840 pixels
Height : 2 160 pixels
Display aspect ratio : 16:9
Frame rate mode : Constant
Frame rate : 29.970 (30000/1001) FPS
Color space : YUV
Chroma subsampling : 4:2:0
Bit depth : 8 bits
Scan type : Progressive
Bits/(Pixel*Frame) : 0.036
Stream size : 2.13 GiB (96%)
Language : English
Encoded date : UTC 2016-04-01 11:42:45
Tagged date : UTC 2016-04-01 11:42:45

Audio
ID : 2
Format : AAC
Format/Info : Advanced Audio Codec
Format profile : LC
Codec ID : 40
Duration : 33 min 56 s
Source duration : 33 min 56 s
Bit rate mode : Constant
Bit rate : 384 kb/s
Channel(s) : 2 channels
Channel positions : Front: L R
Sampling rate : 48.0 kHz
Frame rate : 46.875 FPS (1024 spf)
Compression mode : Lossy
Stream size : 93.2 MiB (4%)
Source stream size : 93.2 MiB (4%)
Language : English
Encoded date : UTC 2016-04-01 11:42:45
Tagged date : UTC 2016-04-01 11:42:45

—————————————————————-
General
Complete name : [cosfans.pw]トモきゅーと!EX 01 [720P].mp4
Format : MPEG-4
Format profile : JVT
Codec ID : avc1 (avc1/mp42)
File size : 1.60 GiB
Duration : 42 min 23 s
Overall bit rate mode : Constant
Overall bit rate : 5 397 kb/s
Encoded date : UTC 2016-04-01 22:40:54
Tagged date : UTC 2016-04-01 22:40:54

Video
ID : 1
Format : AVC
Format/Info : Advanced Video Codec
Format profile : [email protected]
Format settings, CABAC : Yes
Format settings, ReFrames : 2 frames
Format settings, GOP : M=3, N=30
Codec ID : avc1
Codec ID/Info : Advanced Video Coding
Duration : 42 min 23 s
Bit rate mode : Constant
Bit rate : 5 000 kb/s
Width : 1 280 pixels
Height : 720 pixels
Display aspect ratio : 16:9
Frame rate mode : Constant
Frame rate : 29.970 (30000/1001) FPS
Color space : YUV
Chroma subsampling : 4:2:0
Bit depth : 8 bits
Scan type : Progressive
Bits/(Pixel*Frame) : 0.181
Stream size : 1.48 GiB (93%)
Language : English
Encoded date : UTC 2016-04-01 22:40:54
Tagged date : UTC 2016-04-01 22:40:54

Audio
ID : 2
Format : AAC
Format/Info : Advanced Audio Codec
Format profile : LC
Codec ID : 40
Duration : 42 min 23 s
Source duration : 42 min 23 s
Bit rate mode : Constant
Bit rate : 384 kb/s
Channel(s) : 2 channels
Channel positions : Front: L R
Sampling rate : 48.0 kHz
Frame rate : 46.875 FPS (1024 spf)
Compression mode : Lossy
Stream size : 116 MiB (7%)
Source stream size : 116 MiB (7%)
Language : English
Encoded date : UTC 2016-04-01 22:40:54
Tagged date : UTC 2016-04-01 22:40:54

—————————————————————-
General
Complete name : [CosFans.pw]トモきゅーと!EX 02 [720P].mp4
Format : MPEG-4
Format profile : JVT
Codec ID : avc1 (avc1/mp42)
File size : 1.28 GiB
Duration : 33 min 56 s
Overall bit rate mode : Constant
Overall bit rate : 5 397 kb/s
Encoded date : UTC 2016-04-01 11:15:15
Tagged date : UTC 2016-04-01 11:15:15

Video
ID : 1
Format : AVC
Format/Info : Advanced Video Codec
Format profile : [email protected]
Format settings, CABAC : Yes
Format settings, ReFrames : 2 frames
Format settings, GOP : M=3, N=30
Codec ID : avc1
Codec ID/Info : Advanced Video Coding
Duration : 33 min 56 s
Bit rate mode : Constant
Bit rate : 5 000 kb/s
Width : 1 280 pixels
Height : 720 pixels
Display aspect ratio : 16:9
Frame rate mode : Constant
Frame rate : 29.970 (30000/1001) FPS
Color space : YUV
Chroma subsampling : 4:2:0
Bit depth : 8 bits
Scan type : Progressive
Bits/(Pixel*Frame) : 0.181
Stream size : 1.18 GiB (93%)
Language : English
Encoded date : UTC 2016-04-01 11:15:15
Tagged date : UTC 2016-04-01 11:15:15

Audio
ID : 2
Format : AAC
Format/Info : Advanced Audio Codec
Format profile : LC
Codec ID : 40
Duration : 33 min 56 s
Source duration : 33 min 56 s
Bit rate mode : Constant
Bit rate : 384 kb/s
Channel(s) : 2 channels
Channel positions : Front: L R
Sampling rate : 48.0 kHz
Frame rate : 46.875 FPS (1024 spf)
Compression mode : Lossy
Stream size : 93.2 MiB (7%)
Source stream size : 93.2 MiB (7%)
Language : English
Encoded date : UTC 2016-04-01 11:15:15
Tagged date : UTC 2016-04-01 11:15:15

[collapse]

Categories:   @factory-EX, 同人

Comments