Menu

【自炊】ご注文はきむらですか?EX[720P & 4K]





3

 

 

【作品】 【ネタキャラ】
ご注文はうさぎですか? 香風智乃

 

【品番】 D0042096
【発売日】 2016/04/18
【収録時間】 50 分
【監督】 —-
【サークル】 @factory-EX
【ジャンル】 パンチラ , フェラ , 恥辱 , オナニー , アナル , 着衣エッチ , ロリ
【出演者】 木村つな
【内容】 動画

 

【ダウンロード(Download)】
【解像度】 720P & 4K
【BT】 Pantsu|nyaa|magnet
【Openload】 part1|part2|part3|part4|part5|part6
【パスワード(Password)】 CosFans.pw

 

【メディア情報】

General
Complete name : [cosfans.pw]ご注文はきむらですか?EX 01 [4K].mp4
Format : MPEG-4
Format profile : JVT
Codec ID : avc1 (avc1/mp42)
File size : 1.25 GiB
Duration : 19 min 3 s
Overall bit rate mode : Constant
Overall bit rate : 9 396 kb/s
Encoded date : UTC 2016-03-28 05:08:45
Tagged date : UTC 2016-03-28 05:08:45

Video
ID : 1
Format : AVC
Format/Info : Advanced Video Codec
Format profile : [email protected]
Format settings, CABAC : Yes
Format settings, ReFrames : 2 frames
Format settings, GOP : M=3, N=30
Codec ID : avc1
Codec ID/Info : Advanced Video Coding
Duration : 19 min 3 s
Bit rate mode : Constant
Bit rate : 9 000 kb/s
Width : 3 840 pixels
Height : 2 160 pixels
Display aspect ratio : 16:9
Frame rate mode : Constant
Frame rate : 29.970 (30000/1001) FPS
Color space : YUV
Chroma subsampling : 4:2:0
Bit depth : 8 bits
Scan type : Progressive
Bits/(Pixel*Frame) : 0.036
Stream size : 1.20 GiB (96%)
Language : English
Encoded date : UTC 2016-03-28 05:08:45
Tagged date : UTC 2016-03-28 05:08:45

Audio
ID : 2
Format : AAC
Format/Info : Advanced Audio Codec
Format profile : LC
Codec ID : 40
Duration : 19 min 3 s
Source duration : 19 min 3 s
Bit rate mode : Constant
Bit rate : 384 kb/s
Channel(s) : 2 channels
Channel positions : Front: L R
Sampling rate : 48.0 kHz
Frame rate : 46.875 FPS (1024 spf)
Compression mode : Lossy
Stream size : 52.3 MiB (4%)
Source stream size : 52.3 MiB (4%)
Language : English
Encoded date : UTC 2016-03-28 05:08:45
Tagged date : UTC 2016-03-28 05:08:45

———————————————————
General
Complete name : [cosfans.pw]ご注文はきむらですか?EX 02 [4K].mp4
Format : MPEG-4
Format profile : JVT
Codec ID : avc1 (avc1/mp42)
File size : 2.06 GiB
Duration : 31 min 19 s
Overall bit rate mode : Constant
Overall bit rate : 9 397 kb/s
Encoded date : UTC 2016-04-15 08:26:25
Tagged date : UTC 2016-04-15 08:26:25

Video
ID : 1
Format : AVC
Format/Info : Advanced Video Codec
Format profile : [email protected]
Format settings, CABAC : Yes
Format settings, ReFrames : 2 frames
Codec ID : avc1
Codec ID/Info : Advanced Video Coding
Duration : 31 min 19 s
Bit rate mode : Constant
Bit rate : 9 000 kb/s
Width : 3 840 pixels
Height : 2 160 pixels
Display aspect ratio : 16:9
Frame rate mode : Constant
Frame rate : 29.970 (30000/1001) FPS
Color space : YUV
Chroma subsampling : 4:2:0
Bit depth : 8 bits
Scan type : Progressive
Bits/(Pixel*Frame) : 0.036
Stream size : 1.97 GiB (96%)
Language : English
Encoded date : UTC 2016-04-15 08:26:25
Tagged date : UTC 2016-04-15 08:26:25

Audio
ID : 2
Format : AAC
Format/Info : Advanced Audio Codec
Format profile : LC
Codec ID : 40
Duration : 31 min 19 s
Source duration : 31 min 19 s
Bit rate mode : Constant
Bit rate : 384 kb/s
Channel(s) : 2 channels
Channel positions : Front: L R
Sampling rate : 48.0 kHz
Frame rate : 46.875 FPS (1024 spf)
Compression mode : Lossy
Stream size : 86.0 MiB (4%)
Source stream size : 86.0 MiB (4%)
Language : English
Encoded date : UTC 2016-04-15 08:26:25
Tagged date : UTC 2016-04-15 08:26:25

———————————————————
General
Complete name : [cosfans.pw]ご注文はきむらですか?EX 01 [720P].mp4
Format : MPEG-4
Format profile : JVT
Codec ID : avc1 (avc1/mp42)
File size : 735 MiB
Duration : 19 min 3 s
Overall bit rate mode : Constant
Overall bit rate : 5 396 kb/s
Encoded date : UTC 2016-03-28 04:54:13
Tagged date : UTC 2016-03-28 04:54:13

Video
ID : 1
Format : AVC
Format/Info : Advanced Video Codec
Format profile : [email protected]
Format settings, CABAC : Yes
Format settings, ReFrames : 2 frames
Format settings, GOP : M=3, N=30
Codec ID : avc1
Codec ID/Info : Advanced Video Coding
Duration : 19 min 3 s
Bit rate mode : Constant
Bit rate : 5 000 kb/s
Width : 1 280 pixels
Height : 720 pixels
Display aspect ratio : 16:9
Frame rate mode : Constant
Frame rate : 29.970 (30000/1001) FPS
Color space : YUV
Chroma subsampling : 4:2:0
Bit depth : 8 bits
Scan type : Progressive
Bits/(Pixel*Frame) : 0.181
Stream size : 681 MiB (93%)
Language : English
Encoded date : UTC 2016-03-28 04:54:13
Tagged date : UTC 2016-03-28 04:54:13

Audio
ID : 2
Format : AAC
Format/Info : Advanced Audio Codec
Format profile : LC
Codec ID : 40
Duration : 19 min 3 s
Source duration : 19 min 3 s
Bit rate mode : Constant
Bit rate : 384 kb/s
Channel(s) : 2 channels
Channel positions : Front: L R
Sampling rate : 48.0 kHz
Frame rate : 46.875 FPS (1024 spf)
Compression mode : Lossy
Stream size : 52.3 MiB (7%)
Source stream size : 52.3 MiB (7%)
Language : English
Encoded date : UTC 2016-03-28 04:54:13
Tagged date : UTC 2016-03-28 04:54:13

———————————————————
General
Complete name : [cosfans.pw]ご注文はきむらですか?EX 02 [720P].mp4
Format : MPEG-4
Format profile : JVT
Codec ID : avc1 (avc1/mp42)
File size : 1.18 GiB
Duration : 31 min 19 s
Overall bit rate mode : Constant
Overall bit rate : 5 397 kb/s
Encoded date : UTC 2016-04-15 08:00:38
Tagged date : UTC 2016-04-15 08:00:38

Video
ID : 1
Format : AVC
Format/Info : Advanced Video Codec
Format profile : [email protected]
Format settings, CABAC : Yes
Format settings, ReFrames : 2 frames
Format settings, GOP : M=3, N=30
Codec ID : avc1
Codec ID/Info : Advanced Video Coding
Duration : 31 min 19 s
Bit rate mode : Constant
Bit rate : 5 000 kb/s
Width : 1 280 pixels
Height : 720 pixels
Display aspect ratio : 16:9
Frame rate mode : Constant
Frame rate : 29.970 (30000/1001) FPS
Color space : YUV
Chroma subsampling : 4:2:0
Bit depth : 8 bits
Scan type : Progressive
Bits/(Pixel*Frame) : 0.181
Stream size : 1.09 GiB (93%)
Language : English
Encoded date : UTC 2016-04-15 08:00:38
Tagged date : UTC 2016-04-15 08:00:38

Audio
ID : 2
Format : AAC
Format/Info : Advanced Audio Codec
Format profile : LC
Codec ID : 40
Duration : 31 min 19 s
Source duration : 31 min 19 s
Bit rate mode : Constant
Bit rate : 384 kb/s
Channel(s) : 2 channels
Channel positions : Front: L R
Sampling rate : 48.0 kHz
Frame rate : 46.875 FPS (1024 spf)
Compression mode : Lossy
Stream size : 86.0 MiB (7%)
Source stream size : 86.0 MiB (7%)
Language : English
Encoded date : UTC 2016-04-15 08:00:38
Tagged date : UTC 2016-04-15 08:00:38

[collapse]

Categories:   @factory-EX, 同人

Comments

  • Posted: 9月 23, 2017 23:51

    a

    Is the order Tuna?