Menu

【自炊】無双 1-11080P]



3

 

 

【作品】 【ネタキャラ】
終わりのセラフ クルル・ツェペシ

 

【品番】 D0049163
【発売日】 2017/05/31
【収録時間】 58 分
【作者】 CP田園
【サークル】 最強属性
【ジャンル】 ロリ
【出演者】 いろはめる
【内容】 動画

 

【ダウンロード(Download)】
【解像度】 1080P
【BT】 Pantsu|nyaa|magnet
【Openload】 part1|part2|part3|part4
【パスワード(Password)】 CosFans.pw

 

【メディア情報】

General
Complete name : [cosfans.pw]無双 1-1[1080P].mp4
Format : MPEG-4
Format profile : JVT
Codec ID : avc1 (avc1/mp42)
File size : 2.89 GiB
Duration : 58 min 11 s
Overall bit rate mode : Constant
Overall bit rate : 7 108 kb/s
Encoded date : UTC 2017-05-30 03:29:51
Tagged date : UTC 2017-05-30 03:29:51

Video
ID : 1
Format : AVC
Format/Info : Advanced Video Codec
Format profile : [email protected]
Format settings, CABAC : Yes
Format settings, ReFrames : 2 frames
Format settings, GOP : M=3, N=30
Codec ID : avc1
Codec ID/Info : Advanced Video Coding
Duration : 58 min 11 s
Bit rate mode : Constant
Bit rate : 7 000 kb/s
Width : 1 920 pixels
Height : 1 080 pixels
Display aspect ratio : 16:9
Frame rate mode : Constant
Frame rate : 29.970 (30000/1001) FPS
Color space : YUV
Chroma subsampling : 4:2:0
Bit depth : 8 bits
Scan type : Progressive
Bits/(Pixel*Frame) : 0.113
Stream size : 2.84 GiB (98%)
Language : English
Encoded date : UTC 2017-05-30 03:29:51
Tagged date : UTC 2017-05-30 03:29:51

Audio
ID : 2
Format : AAC
Format/Info : Advanced Audio Codec
Format profile : LC
Codec ID : 40
Duration : 58 min 11 s
Source duration : 58 min 11 s
Bit rate mode : Constant
Bit rate : 96.0 kb/s
Channel(s) : 2 channels
Channel positions : Front: L R
Sampling rate : 48.0 kHz
Frame rate : 46.875 FPS (1024 spf)
Compression mode : Lossy
Stream size : 40.0 MiB (1%)
Source stream size : 40.0 MiB (1%)
Language : English
Encoded date : UTC 2017-05-30 03:29:51
Tagged date : UTC 2017-05-30 03:29:51

[collapse]

Categories:   同人, 最強属性

Comments