Menu

無双 4-1 花恋ちゃん かわいい猫コス禁欲解放H![1080P]





3

 

 

【作品】 【ネタキャラ】
俺の妹がこんなに可愛いわけがない 五更瑠璃(黒猫)

 

【品番】 D0049305
【発売日】 2017/06/13
【収録時間】 40 分
【作者】 CP田園
【サークル】 最強属性
【ジャンル】
【出演者】 花恋ちゃん
【内容】 動画

 

【ダウンロード(Download)】
【原発表者】 Uploaded by 蓝酱saikou
【解像度】 1080P
【BT】 Pantsu|magnet
【Openload】 part1|part2
【パスワード(Password)】 CosFans.pw

 

【メディア情報】

General
Complete name : D:\CosFans\[Update]17.6.19\[最強属性] 無双_4-1_花恋ちゃん_かわいい猫コス禁欲解放H!\DL_咲坂花恋.mp4
Format : MPEG-4
Format profile : JVT
Codec ID : avc1 (avc1/mp42)
File size : 1.39 GiB
Duration : 39 min 0 s
Overall bit rate mode : Constant
Overall bit rate : 5 108 kb/s
Encoded date : UTC 2017-06-04 03:32:33
Tagged date : UTC 2017-06-04 03:32:33

Video
ID : 1
Format : AVC
Format/Info : Advanced Video Codec
Format profile : [email protected]
Format settings, CABAC : Yes
Format settings, ReFrames : 2 frames
Format settings, GOP : M=3, N=30
Codec ID : avc1
Codec ID/Info : Advanced Video Coding
Duration : 39 min 0 s
Bit rate mode : Constant
Bit rate : 5 000 kb/s
Width : 1 920 pixels
Height : 1 080 pixels
Display aspect ratio : 16:9
Frame rate mode : Constant
Frame rate : 29.970 (30000/1001) FPS
Color space : YUV
Chroma subsampling : 4:2:0
Bit depth : 8 bits
Scan type : Progressive
Bits/(Pixel*Frame) : 0.080
Stream size : 1.36 GiB (98%)
Language : English
Encoded date : UTC 2017-06-04 03:32:33
Tagged date : UTC 2017-06-04 03:32:33

Audio
ID : 2
Format : AAC
Format/Info : Advanced Audio Codec
Format profile : LC
Codec ID : 40
Duration : 39 min 0 s
Source duration : 39 min 0 s
Bit rate mode : Constant
Bit rate : 96.0 kb/s
Channel(s) : 2 channels
Channel positions : Front: L R
Sampling rate : 48.0 kHz
Frame rate : 46.875 FPS (1024 spf)
Compression mode : Lossy
Stream size : 26.8 MiB (2%)
Source stream size : 26.8 MiB (2%)
Language : English
Encoded date : UTC 2017-06-04 03:32:33
Tagged date : UTC 2017-06-04 03:32:33

[collapse]

Categories:   同人, 最強属性

Comments