Menu

[自薦系]私を撮ってください!03 パイパンの女の子に中出し[720P]





3

 

 

【作品】 【ネタキャラ】
ラブライブ! 星空凛

 

【品番】 D0048638
【発売日】 2017/05/19
【収録時間】 70 分
【監督】 —-
【サークル】 コスプレ一本勝負
【ジャンル】 フェラ,中出し,孕ませ,恥辱,マゾ,リアル系,着衣エッチ
【出演者】 不明
【内容】 動画

 

【ダウンロード(Download)】
【原発表者】 Uploaded by cmpfans
【解像度】 720P
【BT】 Pantsu|magnet
【Openload】 part1|part2|part3|part4
【パスワード(Password)】 CosFans.pw

 

【メディア情報】

General
Complete name : D:\CosFans\[Update]17.6.19\[コスプレ一本勝負] [自薦系]私を撮ってください!03 パイパンの女の子に中出し\本編\tottekudasai_003[cmpfans].mp4
Format : MPEG-4
Format profile : Base Media / Version 2
Codec ID : mp42 (mp42/mp41)
File size : 2.61 GiB
Duration : 1 h 9 min
Overall bit rate mode : Variable
Overall bit rate : 5 390 kb/s
Encoded date : UTC 2017-04-23 07:39:04
Tagged date : UTC 2017-04-23 07:39:04
㏕IM : 00;00;00;00
㏕SC : 30000
㏕SZ : 1001

Video
ID : 1
Format : AVC
Format/Info : Advanced Video Codec
Format profile : [email protected]
Format settings, CABAC : Yes
Format settings, ReFrames : 3 frames
Format settings, GOP : M=4, N=33
Codec ID : avc1
Codec ID/Info : Advanced Video Coding
Duration : 1 h 9 min
Bit rate : 5 196 kb/s
Width : 1 280 pixels
Height : 720 pixels
Display aspect ratio : 16:9
Frame rate mode : Constant
Frame rate : 29.970 (29970/1000) FPS
Original frame rate : 29.970 (30000/1001) FPS
Standard : NTSC
Color space : YUV
Chroma subsampling : 4:2:0
Bit depth : 8 bits
Scan type : Progressive
Bits/(Pixel*Frame) : 0.188
Stream size : 2.52 GiB (96%)
Language : English
Encoded date : UTC 2017-04-23 07:39:04
Tagged date : UTC 2017-04-23 07:39:04
Color range : Limited

Audio
ID : 2
Format : AAC
Format/Info : Advanced Audio Codec
Format profile : LC
Codec ID : 40
Duration : 1 h 9 min
Source duration : 1 h 9 min
Bit rate mode : Variable
Bit rate : 192 kb/s
Maximum bit rate : 297 kb/s
Channel(s) : 2 channels
Channel positions : Front: L R
Sampling rate : 48.0 kHz
Frame rate : 46.875 FPS (1024 spf)
Compression mode : Lossy
Stream size : 94.1 MiB (4%)
Source stream size : 94.1 MiB (4%)
Language : English
Encoded date : UTC 2017-04-23 07:39:04
Tagged date : UTC 2017-04-23 07:39:04

[collapse]

Categories:   コスプレ一本勝負, 同人

Comments